<?xml version="1.0" standalone="no"?>
<!DOCTYPE svg PUBLIC "-//W3C//DTD SVG 1.1//EN" "http://www.w3.org/Graphics/SVG/1.1/DTD/svg11.dtd" >
<!--
2013-9-30: Created.
-->
<svg>
<metadata>
Created by iconfont
</metadata>
<defs>

<font id="userfont" horiz-adv-x="1024" >
  <font-face
    font-family="userfont"
    font-weight="500"
    font-stretch="normal"
    units-per-em="1024"
    ascent="896"
    descent="-128"
  />
    <missing-glyph />
    
    <glyph glyph-name="x" unicode="x" horiz-adv-x="1001"
d="M281 543q-27 -1 -53 -1h-83q-18 0 -36.5 -6t-32.5 -18.5t-23 -32t-9 -45.5v-76h912v41q0 16 -0.5 30t-0.5 18q0 13 -5 29t-17 29.5t-31.5 22.5t-49.5 9h-133v-97h-438v97zM955 310v-52q0 -23 0.5 -52t0.5 -58t-10.5 -47.5t-26 -30t-33 -16t-31.5 -4.5q-14 -1 -29.5 -0.5
t-29.5 0.5h-32l-45 128h-439l-44 -128h-29h-34q-20 0 -45 1q-25 0 -41 9.5t-25.5 23t-13.5 29.5t-4 30v167h911zM163 247q-12 0 -21 -8.5t-9 -21.5t9 -21.5t21 -8.5q13 0 22 8.5t9 21.5t-9 21.5t-22 8.5zM316 123q-8 -26 -14 -48q-5 -19 -10.5 -37t-7.5 -25t-3 -15t1 -14.5
t9.5 -10.5t21.5 -4h37h67h81h80h64h36q23 0 34 12t2 38q-5 13 -9.5 30.5t-9.5 34.5q-5 19 -11 39h-368zM336 498v228q0 11 2.5 23t10 21.5t20.5 15.5t34 6h188q31 0 51.5 -14.5t20.5 -52.5v-227h-327z" />
    

    
    <glyph glyph-name="sousuo" unicode="&#59035;" d="M1023.761491-151.747246 963.805549-211.703188 692.434948 59.667412C525.881242-76.781118 279.739627-67.283147 124.295155 88.161325-41.283313 253.739793-41.283313 522.227081 124.295155 687.84795 289.873623 853.384017 558.360911 853.384017 723.939379 687.84795 879.426253 532.361077 888.881822 286.17706 752.39089 119.623354L1023.761491-151.747246ZM663.262609 628.019213C530.715031 760.566791 316.035445 760.736398 183.699876 628.44323 51.406708 496.150062 51.618716 281.428075 184.166294 148.880497 316.713872 16.332919 531.435859 16.120911 663.729027 148.45648 796.022195 280.707246 795.852588 495.471636 663.262609 628.019213Z"  horiz-adv-x="1024" />

    
    <glyph glyph-name="back" unicode="&#58914;" d="M108.88702999999998 425.83767843749996l386.53858875 380.1524296875c16.6325896875 16.35124875 43.5953934375 16.35124875 60.2253365625 0 16.631707499999997-16.36006875 16.631707499999997-42.877490625 0-59.2322671875l-317.2212871875-311.9825371875 674.5966209375 0c23.920978124999998 0 43.313171249999996-19.071165937499998 43.313171249999996-42.5952684375 0-23.524984687499998-19.392193125000002-42.59879625-43.313171249999996-42.59879625l-674.5966209375 0 317.2186415625-311.9772459375c16.631707499999997-16.3521309375 16.631707499999997-42.873962812500004 0-59.228739374999996-16.631707499999997-16.35565875-43.5953934375-16.35565875-60.2253365625 0l-386.53858875 380.1436096875c-1.5998475 1.1853328125-3.4827984375 1.792993125-4.9397709375000005 3.22968-7.985124375000001 7.853714999999999-11.647839375 18.0763321875-11.945055 28.365095625 0.29986125 14.4189084375 3.9616940624999994 24.6415265625 11.946818437500001 32.497005C105.40511375 424.0446853125 107.2871834375 424.6558725 108.88702999999998 425.83767843749996L108.88702999999998 425.83767843749996zM108.88702999999998 425.83767843749996"  horiz-adv-x="1024" />

    
    <glyph glyph-name="delete" unicode="&#58927;" d="M660.495544 533.172461l49.67026 0 0-397.340587-49.67026 0 0 397.340587ZM536.32757 135.83187399999997L536.32757 533.172461 511.493975 533.172461 486.661404 533.172461 486.661404 135.83187399999997 511.493975 135.83187399999997ZM312.824193 533.172461l49.669236 0 0-397.340587-49.669236 0 0 397.340587ZM710.165804 682.173007L710.165804 781.508409c0 27.306926-22.338774 49.666166-49.67026 49.666166L362.493429 831.174576c-27.331485 0-49.669236-22.360264-49.669236-49.666166l0-99.335403L64.488245 682.173007l0-49.668213 99.336426 0 0-645.675512c0-27.308973 22.334681-49.668213 49.666166-49.668213l596.008322 0c27.331485 0 49.67026 22.360264 49.67026 49.668213L859.169419 632.505817l99.332333 0 0 49.668213L710.165804 682.17403zM362.493429 781.508409l298.002115 0 0-99.335403L362.493429 682.173007 362.493429 781.508409zM809.498136-13.169695000000047L213.489814-13.169695000000047 213.489814 632.505817l596.008322 0L809.498136-13.169695000000047z"  horiz-adv-x="1024" />

    
    <glyph glyph-name="money" unicode="&#58884;" d="M991.971875 738.7865625c0 57.62146875-121.4746875 104.3446875-271.2965625 104.3446875-149.821875 0-271.2965625-46.72321875-271.2965625-104.3446875 0-0.666646875 0.23187750000000001-1.30430625 0.26086125-1.9709531249999999C449.58125 736.3228125 449.37875 735.8878125 449.37875 735.395625l0-200.9503125c-42.20165625 10.4055-92.25806250000001 16.521281249999998-146.0821875 16.521281249999998C153.445625 550.9659375 32 504.2428125 32 446.62125c0-0.3768 0.11593875000000001-0.7246162500000001 0.1449234375-1.1014125000000001C32.11593875 445.28812500000004 32 445.05656250000004 32 444.795l0-446.13187500000004c0-3.7969874999999997 1.884-6.98529375 4.579575-9.014221875 22.9558125-48.69421875 133.5028125-85.649625 266.716875-85.649625 133.18406249999998 0 243.7321875 36.9264375 266.716875 85.62056249999999 2.695575 1.999940625 4.608553125 5.15926875 4.608553125 8.92726875l0 68.20087500000001c42.20165625-10.43446875 92.14218749999999-16.63715625 146.0821875-16.63715625 143.068125 0 260.02125 42.636375 270.28125 96.6346875 0.6086775000000001 1.391259375 1.014459375 2.898459375 1.014459375 4.521599999999999L992 736.0621874999999c0 0.3768-0.173908125 0.7246162500000001-0.2028928125 1.1014125000000001C991.765625 737.7140625 991.971875 738.2353125 991.971875 738.7865625ZM720.6753125 801.3931875000001c126.808125 0 229.558125-28.02815625 229.558125-62.606812500000004s-102.7790625-62.606812500000004-229.558125-62.606812500000004c-126.7790625 0-229.558125 28.02815625-229.558125 62.606812500000004S593.89625 801.3931875000001 720.6753125 801.3931875000001ZM303.2965625 509.2284375c126.7790625 0 229.558125-28.02815625 229.558125-62.606812500000004 0-34.578656249999995-102.7790625-62.606812500000004-229.558125-62.606812500000004s-229.558125 28.02815625-229.558125 62.606812500000004C73.73787499999997 481.2 176.51749999999998 509.2284375 303.2965625 509.2284375ZM73.73787499999997 391.17375C121.73637500000001 361.84125000000006 206.4875 342.27656249999995 303.2965625 342.27656249999995c96.80906250000001 0 181.53093750000002 19.56459375 229.558125 48.9260625l0-90.63496875c0-34.578656249999995-102.7790625-62.606812500000004-229.558125-62.606812500000004s-229.558125 28.02815625-229.558125 62.606812500000004L73.73787499999997 391.17375ZM73.73787499999997 245.0915625c47.998593750000005-29.36146875 132.75-48.9260625 229.558125-48.9260625 96.80906250000001 0 181.53093750000002 19.56459375 229.558125 48.9260625l0-90.63496875c0-34.578656249999995-102.7790625-62.606812500000004-229.558125-62.606812500000004s-229.558125 28.02815625-229.558125 62.606812500000004L73.73787499999997 245.0915625ZM303.2965625-54.233437500000036c-126.7790625 0-229.558125 28.02815625-229.558125 62.606812500000004l0 90.63496875c47.998593750000005-29.36146875 132.75-48.9260625 229.558125-48.9260625 96.80906250000001 0 181.53093750000002 19.56459375 229.558125 48.9260625l0-90.63496875C532.8546875-26.20500000000004 430.0746875-54.233437500000036 303.2965625-54.233437500000036ZM720.6753125 91.84968750000007c-55.50553125 0-106.37343750000001 5.391140624999999-146.0821875 14.3184375l0 106.7503125c42.20165625-10.4634375 92.11312500000001-16.6951875 146.0821875-16.6951875 96.80906250000001 0 181.56 19.56459375 229.558125 48.9260625l0-90.63496875C950.2334375 119.87718749999999 847.4534375000001 91.84968750000007 720.6753125 91.84968750000007ZM720.6753125 237.931875c-55.50553125 0-106.37343750000001 5.391140624999999-146.0821875 14.3184375l0 106.7503125C616.7937499999999 348.50812500000006 666.7053125 342.27656249999995 720.6753125 342.27656249999995c96.80906250000001 0 181.56 19.56459375 229.558125 48.9260625l0-90.63496875C950.2334375 265.9603125 847.4534375000001 237.931875 720.6753125 237.931875ZM720.6753125 384.01406249999997c-55.50553125 0-106.37343750000001 5.362153125000001-146.0821875 14.3184375l0 41.737875c0 0.9564937499999999-0.28984593750000004 1.797046875-0.5217234375 2.6665875 0.11593875000000001 1.30430625 0.5217234375 2.579634375 0.5217234375 3.883940625 0 29.56434375-32.115 56.20115625-83.47575 75.18609375l0 15.477749999999999c47.998593750000005-29.332406250000002 132.75-48.9260625 229.558125-48.9260625 96.80906250000001 0 181.56 19.56459375 229.558125 48.9260625L950.2334375 446.62125C950.2334375 412.04249999999996 847.4534375000001 384.01406249999997 720.6753125 384.01406249999997ZM720.6753125 530.0971875c-126.7790625 0-229.558125 28.02815625-229.558125 62.606812500000004L491.11625 683.368125c47.998593750000005-29.332406250000002 132.75-48.9260625 229.558125-48.9260625 96.80906250000001 0 181.56 19.56459375 229.558125 48.9260625L950.2334375 592.7034375000001C950.2334375 558.125625 847.4534375000001 530.0971875 720.6753125 530.0971875Z"  horiz-adv-x="1025" />

    
    <glyph glyph-name="jiantou" unicode="&#58982;" d="M912.637 477.442c-10.772 0-20.33-4.346-27.937-10.86l-0.425 0.425-2.235-2.234c-0.044-0.045-0.067-0.063-0.112-0.106L523.592 106.328c-6.256-6.239-16.377-6.239-22.608 0L140.298 467.007l-0.659-0.659c-7.646 6.686-17.355 11.093-28.298 11.093-23.935 0-43.374-19.441-43.374-43.396 0-15.289 8.389-28.084 20.355-35.812 0.726-1.345 0.576-2.983 1.705-4.112l410.958-410.948c6.232-6.244 16.353-6.244 22.608 0l410.951 410.949c1.279 1.279 1.172 3.107 1.916 4.641 11.521 7.794 19.57 20.336 19.57 35.283l0.002 0C956.033 458.001 936.592 477.442 912.637 477.442zM88.321 710.302c0.726-1.341 0.576-2.979 1.705-4.109l410.959-410.951c6.232-6.239 16.353-6.239 22.608 0l410.951 410.951c1.279 1.277 1.172 3.108 1.916 4.641 11.521 7.794 19.57 20.336 19.57 35.283l0.002-0.001c0 23.955-19.441 43.394-43.396 43.394-10.772 0-20.33-4.345-27.937-10.857l-0.425 0.425-2.235-2.235c-0.044-0.045-0.067-0.063-0.112-0.109L523.591 418.396c-6.256-6.238-16.377-6.238-22.608 0L140.297 779.079l-0.659-0.659c-7.646 6.685-17.354 11.091-28.298 11.091-23.935 0-43.374-19.438-43.374-43.394C67.966 730.827 76.355 718.03 88.321 710.302z"  horiz-adv-x="1024" />

    
    <glyph glyph-name="message" unicode="&#58892;" d="M1006.384765625 779.5078125L215.369140625 779.5078125C160.98681640625 779.5078125 116.4921875 735.01318359375 116.4921875 680.630859375L116.4921875 87.369140625C116.4921875 32.98681640625 160.98681640625-11.5078125 215.369140625-11.5078125L1006.384765625-11.5078125C1060.76708984375-11.5078125 1105.26171875 32.98681640625 1105.26171875 87.369140625L1105.26171875 680.630859375C1105.26171875 735.01318359375 1060.76708984375 779.5078125 1006.384765625 779.5078125L1006.384765625 779.5078125ZM1006.384765625 581.75390625L610.876953125 334.5615234375 215.369140625 581.75390625 215.369140625 680.630859375 610.876953125 433.4384765625 1006.384765625 680.630859375 1006.384765625 581.75390625 1006.384765625 581.75390625Z"  horiz-adv-x="1280" />

    
    <glyph glyph-name="xiala" unicode="&#58881;" d="M304.572 513.642h414.857l-207.428-259.286z"  horiz-adv-x="1024" />

    
    <glyph glyph-name="shouji" unicode="&#59162;" d="M840.9700789333333 34.2453198222222q0-26.876640000000002-10.750656-49.99055146666667t-29.564304-40.85249386666667-44.07769066666666-27.951705599999997-54.29081386666667-10.213123199999998l-381.6482944 0q-29.0267712 0-54.29081386666667 10.213123199999998t-44.07769066666666 27.951705599999997-29.564304 40.85249386666667-10.750656 49.99055146666667l0 720.2939637333333q0 26.876640000000002 10.750656 50.52808426666666t29.564304 41.39002666666667 44.07769066666666 27.951705599999997 54.29081386666667 10.213123199999998l381.6482944 0q29.0267712 0 54.29081386666667-10.213123199999998t44.07769066666666-27.951705599999997 29.564304-41.39002666666667 10.750656-50.52808426666666l0-720.2939637333333zM753.8897642666667 702.9361326222222l-485.9296586666667 0 0-616.0125984 485.9296586666667 0 0 616.0125984zM510.9249344 56.82169742222209q-22.5763776 0-39.23989546666667-16.125984t-16.6635168-39.77742826666667q0-22.5763776 16.6635168-39.23989546666667t39.23989546666667-16.6635168q23.651443200000003 0 39.77742826666667 16.6635168t16.125984 39.23989546666667q0 23.651443200000003-16.125984 39.77742826666667t-39.77742826666667 16.125984zM596.9301834666667 794.3167107555555q0 8.600524799999999-5.375328 13.438320000000001t-11.825721600000001 4.8377952l-136.53333333333333 0q-5.375328 0-11.2881888-4.8377952t-5.912860800000001-13.438320000000001 5.375328-13.438320000000001 11.825721600000001-4.8377952l136.53333333333333 0q6.4503936 0 11.825721600000001 4.8377952t5.375328 13.438320000000001z"  horiz-adv-x="1024" />

    
    <glyph glyph-name="back1" unicode="&#58905;" d="M943.25-3.86s-8.78-22.61-20.48 0c0 0-130.69 394.44-449.27 295.08v-122.43s-5.1-72-67.9-25.1L92.36 414.08s-66.41 36.14 4 85.58l316.64 272s47.6 33.95 59.05-21.72l0.36-132.11c0.02-0.06 593.75-28.49 470.84-621.69z"  horiz-adv-x="1024" />

    
    <glyph glyph-name="sousuo1" unicode="&#58912;" d="M727.934 201.316c60.047 67.008 96.572 155.563 96.572 252.643 0 209.08-169.492 378.596-378.596 378.596-209.102 0-378.598-169.516-378.598-378.596 0-209.129 169.495-378.643 378.598-378.643 95.079 0 181.977 35.056 248.505 92.963l230.23-230.251 33.288 33.286-229.999 230.002z m-282.023-79.174c-182.943 0-331.772 148.873-331.772 331.817 0 182.897 148.828 331.815 331.772 331.815 182.942 0 331.77-148.918 331.77-331.815 0-182.943-148.828-331.817-331.77-331.817z"  horiz-adv-x="1024" />

    
    <glyph glyph-name="jiantou1" unicode="&#58901;" d="M464.213333-128c-10.24 0-17.066667 3.413333-23.893333 10.24-17.066667 13.653333-20.48 40.96-6.826667 58.026667l399.36 450.56L440.32 827.733333c-13.653333 17.066667-13.653333 44.373333 3.413333 58.026667 17.066667 13.653333 40.96 13.653333 58.026667-3.413333L914.773333 418.133333c13.653333-13.653333 13.653333-37.546667 0-51.2l-419.84-477.866666c-6.826667-10.24-17.066667-17.066667-30.72-17.066667zM136.533333-128c-10.24 0-17.066667 3.413333-23.893333 10.24-17.066667 13.653333-20.48 40.96-6.826667 58.026667l399.36 450.56L112.64 827.733333c-13.653333 17.066667-13.653333 44.373333 3.413333 58.026667 17.066667 13.653333 40.96 13.653333 58.026667-3.413333L590.506667 418.133333c13.653333-13.653333 13.653333-37.546667 0-51.2L170.666667-114.346667c-10.24-6.826667-20.48-13.653333-34.133334-13.653333z"  horiz-adv-x="1024" />

    
    <glyph glyph-name="jiantou11" unicode="&#58880;" d="M111.362 290.558c10.772 0 20.33 4.347 27.937 10.86l0.425-0.425 2.235 2.234c0.044 0.045 0.067 0.063 0.112 0.106l358.336 358.339c6.256 6.239 16.377 6.239 22.608 0l360.686-360.679 0.659 0.659c7.646-6.686 17.355-11.093 28.298-11.093 23.936 0 43.374 19.441 43.374 43.397 0 15.289-8.389 28.083-20.355 35.812-0.725 1.345-0.576 2.983-1.705 4.112l-410.958 410.948c-6.232 6.244-16.353 6.244-22.608 0l-410.951-410.949c-1.279-1.279-1.172-3.107-1.916-4.641-11.521-7.794-19.57-20.336-19.57-35.283h-0.001c-0.001-23.955 19.44-43.396 43.395-43.397zM935.679 57.698c-0.726 1.341-0.576 2.979-1.705 4.109l-410.959 410.951c-6.232 6.239-16.353 6.239-22.608 0l-410.951-410.951c-1.278-1.277-1.172-3.108-1.916-4.641-11.521-7.794-19.57-20.336-19.57-35.283l-0.002 0.001c0-23.955 19.441-43.394 43.396-43.394 10.772 0 20.33 4.345 27.937 10.858l0.425-0.425 2.235 2.235c0.044 0.045 0.067 0.063 0.112 0.109l358.336 358.338c6.256 6.238 16.377 6.238 22.608 0l360.686-360.683 0.659 0.659c7.647-6.685 17.355-11.091 28.298-11.091 23.936 0 43.374 19.438 43.374 43.394 0 15.29-8.388 28.087-20.355 35.815z"  horiz-adv-x="1024" />

    
    <glyph glyph-name="icon202" unicode="&#59167;" d="M498.74 164.0329999999999c8.355999999999998-8.646 23.745999999999995-8.647000000000006 32.103-1.0658141036401503e-14l271.705 281.72099999999995c11.313000000000002 11.729999999999997 1.6810000000000078 29.583999999999996-16.051999999999985 29.585l-175.50999999999993 5.684341886080802e-14 5.684341886080802e-14 256.255c2.6645352591003757e-15 8.898-7.1939999999999955 16.133000000000003-16.037999999999997 16.133l-162.333 5.684341886080802e-14c-8.846 3.552713678800501e-15-16.038000000000004-7.233999999999995-16.037999999999997-16.133l-8.526512829121202e-14-256.25699999999995-173.486 4.263256414560601e-14c-17.732999999999997 5.329070518200751e-15-27.364-17.852999999999994-16.052000000000007-29.58499999999999l271.7049999999998-281.7190000000001zM788.0919999999999 89.30999999999995l-546.601 1.7053025658242404e-13c-10.703 2.6645352591003757e-15-19.33-7.178999999999994-19.33-16.082l-1.4210854715202004e-14-40.991c-2.6645352591003757e-15-8.866 8.626999999999994-16.082 19.33-16.082l546.601-1.7053025658242404e-13c10.654999999999998-2.6645352591003757e-15 19.33 7.216999999999992 19.33 16.082l1.4210854715202004e-14 40.991c-0.0009999999999976694 8.904999999999998-8.674999999999997 16.082000000000004-19.33 16.082z"  horiz-adv-x="1024" />

    
    <glyph glyph-name="jifen" unicode="&#58932;" d="M555.645 99.919c-0.319 0-0.638 0-0.956 0-66.492 2.686-130.161 10.604-184.092 22.938-12.243 2.822-19.934 14.974-17.113 27.262 2.822 12.289 15.065 19.979 27.262 17.113 51.245-11.697 112.048-19.251 175.809-21.801 12.56-0.546 22.3-11.104 21.799-23.666-0.5-12.242-10.559-21.845-22.71-21.845zM673.519 86.539c-12.016 0-21.982 9.33-22.71 21.437-0.774 12.515 8.829 23.347 21.391 24.029 192.33 11.287 294.775 64.125 294.775 97.894 0 12.561 10.195 22.755 22.755 22.755 12.561 0 22.756-10.194 22.756-22.755 0-85.287-169.575-133.485-337.602-143.314-0.5-0.046-0.91-0.046-1.365-0.046zM602.158 192.215c-49.744 0-98.532 2.912-145.044 8.738-12.469 1.547-21.299 12.925-19.751 25.395 1.547 12.469 12.834 21.482 25.395 19.797 99.852-12.423 212.674-10.922 307.473 3.961 12.334 1.637 24.030-6.555 25.987-18.979 1.956-12.378-6.599-24.029-18.978-25.986-54.66-8.557-113.597-12.926-175.082-12.926zM874.314 227.533c-9.694 0-18.659 6.236-21.755 15.974-3.732 12.016 2.912 24.758 14.927 28.535 73.364 22.939 99.443 49.744 99.443 65.718 0 38.731-137.081 97.166-351.846 100.579-12.561 0.182-22.574 10.558-22.391 23.12 0.228 12.561 10.74 23.302 23.12 22.391 197.108-3.14 396.675-54.34 396.675-146.091 0-31.085-22.801-75.23-131.346-109.181-2.275-0.774-4.596-1.047-6.827-1.047zM154.192-24.007c-15.292-0.046-29.173 4.233-40.688 14.244-9.511 8.238-10.512 22.619-2.321 32.085 8.238 9.511 22.619 10.512 32.085 2.321 12.515-10.786 66.582 2.686 158.787 84.333 53.841 47.377 110.365 108.681 163.568 177.311 153.692 198.748 208.123 363.134 178.085 389.030-9.511 8.192-10.604 22.573-2.412 32.085 8.238 9.466 22.528 10.604 32.085 2.412 69.859-60.119-33.541-272.565-171.805-451.379-54.931-70.907-113.504-134.349-169.392-183.546-45.967-40.779-121.515-98.897-177.994-98.897zM75.821 44.167c-20.388 0-33.678 7.509-41.551 14.244-69.951 60.212 33.497 272.522 171.805 451.153 124.655 160.973 260.368 274.295 337.692 282.032 25.395 2.595 41.369-6.144 50.335-13.836 33.222-28.444 30.492-89.885-8.42-182.636-4.823-11.605-18.067-17.067-29.764-12.197-11.559 4.823-17.067 18.158-12.197 29.763 36.181 86.335 29.355 123.108 20.707 130.526-3.277 2.867-8.692 3.823-16.202 3.094-54.567-5.461-177.266-98.122-306.244-264.602-153.734-198.517-208.166-362.903-178.128-388.799 3.231-2.777 8.692-3.823 16.246-3.004 54.659 5.507 177.357 98.167 306.109 264.602 34.133 44.055 65.172 88.837 92.205 133.075 6.554 10.785 20.571 14.109 31.266 7.6 10.74-6.555 14.155-20.571 7.601-31.267-27.899-45.739-59.892-91.933-95.073-137.262-124.427-160.836-260.050-274.204-337.51-282.032-3.050-0.319-6.007-0.455-8.876-0.455zM133.211-18.637c-5.233 0-10.467 1.775-14.79 5.461l-81.465 69.54c-9.557 8.147-10.695 22.483-2.549 32.041 8.238 9.602 22.573 10.694 32.085 2.548l81.465-69.54c9.557-8.147 10.694-22.482 2.549-32.039-4.507-5.28-10.877-8.011-17.295-8.011zM664.644 666.487c-5.233 0-10.513 1.82-14.79 5.461l-81.237 69.586c-9.557 8.192-10.65 22.573-2.503 32.085 8.238 9.557 22.619 10.603 32.085 2.502l81.237-69.586c9.557-8.192 10.649-22.573 2.502-32.084-4.506-5.28-10.923-7.965-17.294-7.965zM989.411 80.212c-12.56 0-22.755 10.195-22.755 22.756l-0.182 227.738c0 12.56 10.195 22.755 22.756 22.755v0c12.56 0 22.755-10.195 22.755-22.755l0.182-227.738c-0.001-12.515-10.149-22.756-22.756-22.756v0zM602.34-24.099c-129.252 0-251.358 20.207-326.679 54.067-11.469 5.142-16.565 18.613-11.423 30.082s18.523 16.703 30.082 11.424c69.723-31.311 184.911-50.063 308.020-50.063 222.686 0 364.771 59.211 364.771 99.942 0 12.56 10.195 22.755 22.756 22.755 12.56 0 22.755-10.195 22.755-22.755-0.001-95.481-206.394-145.453-410.283-145.453z"  horiz-adv-x="1024" />

    
    <glyph glyph-name="jiaoliu" unicode="&#58899;" d="M932.509090625 288.93090937500006h-60.01454531249999v-121.28000062499999l-120 121.28000062499999H392.52363593750005a60.305454375 60.305454375 0 0 0-60.01454531249999 60.625454062500005V773.992726875c0 33.4836365625 26.850909375 60.625455 60.01454531249999 60.625455h540.0145462500001c33.1636359375 0 60.01454531249999-27.1418184375 60.01454531249999-60.625455v-424.40727187499994a60.3636365625 60.3636365625 0 0 0-60.043636875000004-60.654545625000004M482.5018184375 592.087273125c-16.552726874999998 0-29.992726875000002-13.585455-29.9927278125-30.3127275s13.44-30.3127275 29.9927278125-30.3127275 29.992726875000002 13.585455 29.992726875000002 30.3127275a30.10909125 30.10909125 0 0 1-29.992726875000002 30.3127275m180.0145453125 0c-16.552726874999998 0-29.992726875000002-13.585455-29.9927278125-30.3127275s13.44-30.3127275 29.9927278125-30.3127275 29.992726875000002 13.585455 29.992726875000002 30.3127275c0 16.7563640625-13.44 30.3127275-29.992726875000002 30.3127275m179.9854546875 0c-16.552726874999998 0-29.992726875000002-13.585455-29.9927278125-30.3127275s13.44-30.3127275 29.9927278125-30.3127275 29.992726875000002 13.585455 29.992726875000002 30.3127275a30.10909125 30.10909125 0 0 1-29.992726875000002 30.3127275m-149.9927278125-363.810909375v-121.2509090625a60.33454499999999 60.33454499999999 0 0 0-60.01454531249999-60.625455H272.5236359375l-120-121.27999968749998v121.27999968749998H92.509090625a60.305454375 60.305454375 0 0 0-60.01454531249999 60.625455v424.43636343749995c0 33.4836365625 26.850909375 60.625455 60.01454531249999 60.625455h180.0145453125v-303.127273125c0-33.4836365625 26.850909375-60.654545625000004 60.01454625-60.654545625000004h359.97090843750004v-0.029090625m0 0z"  horiz-adv-x="1024" />

    
    <glyph glyph-name="bofang" unicode="&#59522;" d="M784.32-49.76C815.84-95.76 889.76-128 976-128c16.528 0 48 99.36 48 99.36-59.072 8.576-108.352 32.72-136 64.96A510.304 510.304 0 0 1 1024 384C1024 666.768 794.768 896 512 896 229.232 896 0 666.768 0 384c0-282.768 229.232-512 512-512 100.048 0 193.456 28.64 272.32 78.24zM448 384a64 64 0 1 0 128 0 64 64 0 0 0-128 0zM128 384a128 128 0 1 0 256 0 128 128 0 0 0-128-128 128 128 0 0 0-128 128z m256 256a128 128 0 0 0 128 128 128 128 0 0 0 128-128c0-70.704-57.28-128-128-128a128 128 0 0 0-128 128z m288-256a128 128 0 1 0 256 0 128 128 0 0 0-128-128 128 128 0 0 0-128 128zM384 128a128 128 0 0 0 128 128 128 128 0 0 0 128-128 128 128 0 0 0-256 0z"  horiz-adv-x="1024" />

    
    <glyph glyph-name="xiangzuo" unicode="&#58903;" d="M700.16 861.44a36.8 36.8 0 0 0 10.56-6.72 32 32 0 0 0 0-45.44 36.8 36.8 0 0 0-10.56-6.72 26.56 26.56 0 0 0-12.16-2.56 32 32 0 0 0-22.72 9.28A33.6 33.6 0 0 0 656 832a33.6 33.6 0 0 0 9.28 22.72A33.6 33.6 0 0 0 688 864a32 32 0 0 0 12.16-2.56zM637.76 716.16l-75.52-96A32 32 0 0 0 512 659.84l75.52 96a32 32 0 0 0 50.24-39.68zM486.72 524.16L376.64 384l336.64-428.16a32 32 0 0 0-50.24-39.68l-352 448a32 32 0 0 0 0 39.68l125.76 160a32 32 0 1 0 50.24-39.68z"  horiz-adv-x="1024" />

    
    <glyph glyph-name="xiangyou" unicode="&#58904;" d="M323.84 861.44a36.8 36.8 0 0 1-10.56-6.72 32 32 0 0 1 0-45.44 36.8 36.8 0 0 1 10.56-6.72 26.56 26.56 0 0 1 12.16-2.56 32 32 0 0 1 22.72 9.28A33.6 33.6 0 0 1 368 832a33.6 33.6 0 0 1-9.28 22.72A33.6 33.6 0 0 1 336 864a32 32 0 0 1-12.16-2.56zM386.24 716.16l75.52-96A32 32 0 0 1 512 659.84l-75.52 96a32 32 0 0 1-50.24-39.68zM537.28 524.16L647.36 384 310.72-44.16a32 32 0 0 1 50.24-39.68l352 448a32 32 0 0 1 0 39.68l-125.76 160a32 32 0 1 1-50.24-39.68z"  horiz-adv-x="1024" />

    
    <glyph glyph-name="kongjian" unicode="&#59047;" d="M190.7580804361483 107.71902069570376l365.4276485878518-195.87710369185183c22.030348743111112-11.808674550518518 49.87555627614815 2.5787202370370372 49.87555627614815 25.76856101925926V318.6670353825184c0 10.513722026666668-6.085779759407407 20.256934874074073-16.03529022577778 25.66914048L224.5971037297777 543.1374861653334c-22.02662047288889 11.982660494222221-50.05948427377777-2.3910639691851845-50.05948427377777-25.66914048v-383.9807639703704c0-10.583316404148148 6.166558947555556-20.379967791407406 16.220460980148147-25.76856101925926z m542.546582034963-197.10370459496295l365.4276485878518 198.8013103028148c9.94826770962963 5.412205605925926 16.03529022577778 15.155418453333333 16.03529022577778 25.66914048v381.05407184592593c0 23.18984078222222-27.845207533037033 37.57723556977777-49.87555627614815 25.76856101925926L699.4643964207405 346.03378157037037c-10.05390203259259-5.388593227851851-16.220460980148147-15.185244615111113-16.220460980148147-25.76856101925926V-63.71554341925935c0.0012427567407407407-23.278076510814813 28.03410655762963-37.65304373096296 50.06072703051851-25.66914048z m-104.33067114192592 948.1078168082963L268.9324504557037 664.2665001718519c-21.500934371555555-11.612318985481483-21.500934371555555-39.822897000296294 0-51.43521598577777L628.9739913291853 418.3746514488889c10.425486298074075-5.630930792296296 23.418508022518516-5.630930792296296 33.84399432059259 0l360.044026386963 194.45911825066665c21.500934371555555 11.612318985481483 21.500934371555555 39.822897000296294 0 51.43521598577777l-360.044026386963 194.4541472237037c-10.425486298074075 5.630930792296296-23.418508022518516 5.630930792296296-33.84399432059259 0z"  horiz-adv-x="1310" />

    
    <glyph glyph-name="jifen1" unicode="&#58996;" d="M493.6 108v63.2c-43.2 4.8-88.8 23.2-120 49.6l-3.2 2.4 30.4 38.4 3.2-2.4c36-28 71.2-41.6 108.8-41.6 50.4 0 80 23.2 80 64 0 49.6-45.6 69.6-93.6 91.2-53.6 24-108.8 48.8-108.8 116 0 55.2 41.6 98.4 104 108v64h47.2v-63.2c48.8-5.6 78.4-28 99.2-48l3.2-3.2-33.6-33.6-2.4 2.4c-26.4 23.2-47.2 35.2-86.4 35.2-42.4 0-70.4-24-70.4-60 0-41.6 39.2-58.4 85.6-78.4 55.2-24 116.8-50.4 116.8-128 0-60.8-42.4-103.2-111.2-112.8v-64h-48.8zM512-118.4C235.2-118.4 9.6 107.2 9.6 384S235.2 886.4 512 886.4s502.4-225.6 502.4-502.4-225.6-502.4-502.4-502.4zM512 837.6C261.6 837.6 58.4 634.4 58.4 384c0-250.4 204-453.6 453.6-453.6 250.4 0 453.6 204 453.6 453.6 0 250.4-203.2 453.6-453.6 453.6zM512-28c-14.4 0-25.6 11.2-25.6 25.6 0 14.4 11.2 25.6 25.6 25.6 199.2 0 360.8 161.6 360.8 360.8 0 55.2-12 108.8-36.8 158.4-3.2 6.4-3.2 12.8-0.8 19.2 2.4 6.4 7.2 12 12.8 14.4 3.2 1.6 7.2 2.4 11.2 2.4 9.6 0 18.4-5.6 23.2-14.4 27.2-56.8 41.6-117.6 41.6-180.8 0-226.4-184.8-411.2-412-411.2zM781.6 635.2c-6.4 0-12.8 2.4-17.6 7.2C696 708.8 606.4 744.8 512 744.8c-14.4 0-25.6 11.2-25.6 25.6s11.2 25.6 25.6 25.6c108 0 210.4-41.6 287.2-116.8 4.8-4.8 8-11.2 8-17.6 0-7.2-2.4-13.6-7.2-18.4-4.8-4.8-11.2-8-18.4-8zM361.6 2.4c-3.2 0-6.4 0.8-9.6 2.4-152.8 64-252 212.8-252 379.2 0 160.8 94.4 307.2 240 374.4 3.2 1.6 7.2 2.4 10.4 2.4 9.6 0 19.2-5.6 23.2-15.2 5.6-12.8 0-28-12.8-33.6-128-58.4-210.4-187.2-210.4-328 0-145.6 86.4-276 220.8-332.8 6.4-2.4 11.2-7.2 13.6-13.6s2.4-13.6 0-19.2c-4-9.6-12.8-16-23.2-16z"  horiz-adv-x="1024" />

    
    <glyph glyph-name="renwu" unicode="&#58919;" d="M458.24-59.392H37.888c-9.728 0-17.408 8.192-17.408 17.92v21.504c-0.512 6.144-1.024 39.424 19.968 75.776 12.8 23.04 31.744 42.496 55.296 58.368 28.672 18.944 65.024 32.768 108.032 40.448h0.512c0.512 0 33.28 4.608 67.072 13.824 58.368 15.872 63.488 29.696 63.488 29.696 0.512 1.536 1.024 2.56 1.536 4.096 0.512 2.56 1.536 12.288-0.512 38.912-5.632 67.072-39.936 106.496-67.072 138.24-8.704 10.24-16.896 19.456-23.04 28.672-27.136 39.936-29.696 85.504-29.696 87.552V496.64c0 17.92 8.704 26.624 16.384 33.792l0.512 0.512 0.512 0.512c0 1.536-0.512 4.608-1.024 6.656 0 1.024-0.512 1.536-0.512 2.56C225.28 579.072 224.768 637.44 230.912 674.816c2.048 49.152 43.52 87.04 45.568 88.576 6.144 5.12 11.776 10.752 15.872 16.896 0.512 0.512 1.024 1.536 1.024 1.536-0.512 0.512-0.512 1.536-1.024 2.56-2.048 5.632-5.632 13.824-3.584 24.064 1.024 6.144 5.632 17.92 22.528 22.528 6.656 2.048 14.336 2.048 19.456 2.56h1.024c20.992 1.024 43.52 2.048 66.56 0.512 164.864-12.8 221.696-76.288 223.744-78.848l0.512-0.512c13.312-16.384 23.04-36.352 29.184-59.904 2.048-7.168 3.072-13.312 3.584-19.456 5.632-34.304 4.608-69.632 3.584-93.184-0.512-13.312-2.048-27.136-4.608-43.52-0.512-4.608 0-5.632 0.512-5.632 0.512-1.024 1.536-2.048 2.56-3.072 3.584-4.096 8.704-9.216 11.264-17.92 1.536-4.608 2.048-9.216 2.048-14.848v-1.024c0-2.048-2.56-47.616-29.696-87.552-6.144-9.216-14.336-18.944-23.04-28.672-27.136-31.744-61.44-71.168-67.072-138.24-2.048-26.112-1.024-36.352-0.512-38.912 0.512-1.024 1.024-2.56 1.536-4.096 0 0 5.12-14.336 64-30.208 33.792-9.216 66.56-13.824 67.072-13.824h1.024c43.52-8.192 79.872-22.016 109.056-41.472 24.064-15.872 42.496-35.328 55.296-58.368 20.48-35.84 19.456-68.608 18.944-74.752v-21.504c0-10.24-7.68-17.92-17.408-17.92m-36.864 39.936v8.192 1.536c0 1.536 5.12 26.624-10.752 55.296-9.728 16.896-21.504 28.16-39.424 40.448-23.04 15.872-68.608 27.648-104.448 34.816-4.096 0.512-36.352 5.12-68.608 14.336-62.464 17.92-75.776 39.424-80.384 53.76-3.584 7.168-5.632 24.064-2.56 58.88 6.144 77.312 47.616 122.88 74.752 155.648 7.68 9.216 14.336 17.408 19.456 25.088 18.944 29.184 21.504 62.976 22.016 67.072 0 2.048 0 3.072-0.512 3.584 0 0.512-1.536 2.56-3.072 4.096-1.024 1.024-4.096 4.608-5.632 6.144-7.168 9.216-7.68 17.92-5.632 31.744 2.048 15.36 3.584 27.648 4.096 39.424 1.536 33.792 1.024 59.392-3.072 82.944v1.024c-0.512 4.096-1.536 8.704-2.56 14.848-4.608 17.92-11.264 32.768-20.48 44.544-1.536 1.536-13.824 14.336-40.448 28.16-48.64 25.088-107.008 33.792-147.456 37.376-19.456 1.536-39.424 0.512-57.856-0.512h-1.024c-1.536 0-4.096 0-6.656-0.512 2.048-5.632 4.608-13.824 2.048-24.064-1.024-3.584-2.56-7.168-5.12-11.264-6.144-10.24-14.336-18.432-21.504-24.576-1.536-1.536-30.208-29.696-31.232-62.464v-2.56c-5.12-32.768-5.12-86.016 1.024-119.296 0-0.512 0-1.536 0.512-2.048 1.536-9.728 4.608-26.112-9.728-39.936l-0.512-0.512c-2.048-2.048-4.608-4.096-4.608-5.12v-1.536c0.512-4.096 3.072-37.888 22.016-67.072 4.608-7.168 11.264-15.36 19.456-25.088 27.136-33.28 68.608-78.848 74.752-155.648 3.072-34.816 1.024-51.712-2.56-58.88-4.608-14.336-17.92-35.84-80.384-53.76-32.256-9.216-65.024-13.824-68.608-14.336-35.328-6.656-66.56-13.824-89.6-29.696-17.92-12.288-37.888-27.136-47.616-44.544-16.384-28.672-16.896-54.784-16.896-56.32V-19.968h384"  horiz-adv-x="1024" />

    
    <glyph glyph-name="xiugai" unicode="&#58908;" d="M65.08600000000001 133.76966666666658L65.08600000000001-52.51333333333321 251.33000000000004-52.51333333333321l484.103 521.4589999999998-186.15999999999994 186.18299999999996L65.08500000000004 133.76966666666658z m819.3610000000001 484.084c18.411 18.31 18.411 56.135999999999996 0 74.52799999999999L772.667 804.1206666666666c-18.493999999999996 18.31-56.054 18.31-74.467 0L586.504 692.3826666666668l186.162-186.223 111.781 111.69399999999999zM437.49199999999996 22.031666666666638l-74.464-74.545L958.9099999999999-52.51333333333332l0 74.545L437.49199999999996 22.031666666666638z"  horiz-adv-x="1024" />

    
    <glyph glyph-name="zijin" unicode="&#58902;" d="M922.624 368.64v-107.52c0-11.264-9.216-20.48-20.48-20.48h-317.44c-26.624 0-76.8 73.216-76.8 84.48 0 11.264 54.272 84.48 76.8 84.48h237.056c56.32 0 102.4 52.736 102.4 117.76s-46.08 117.76-102.4 117.76H153.6c-28.16 0-51.2 23.04-51.2 51.2s23.04 51.2 51.2 51.2h568.32c28.16 0 51.2-23.04 51.2-51.2h51.2c0 56.32-46.08 102.4-102.4 102.4H153.6c-54.784 0-99.328-43.008-101.888-97.28H51.2v-716.8c0-5.632 4.608-10.24 10.24-10.24h849.92c5.632 0 10.24 4.608 10.24 10.24v207.36c30.208 8.704 52.224 36.352 52.224 69.12v107.52h-51.2zM102.4 25.6V607.744C117.248 599.04 135.168 593.92 153.6 593.92h668.16c28.16 0 51.2-29.696 51.2-66.56s-23.04-66.56-51.2-66.56h-247.296c-39.424 0-123.904-103.936-123.904-135.68s78.848-135.68 118.784-135.68H870.4v-163.84H102.4zM609.28 327.68m-40.96 0a40.96 40.96 0 1 1 81.92 0 40.96 40.96 0 1 1-81.92 0Z"  horiz-adv-x="1024" />

    
    <glyph glyph-name="shouye" unicode="&#58928;" d="M410.31680000000006-48.15189333333319V256.89656888888896h203.3664v-305.0484622222222h254.20686222222224V358.5797688888889h152.52366222222224L512 816.1518933333334 3.586275555555517 358.5797688888889h152.52366222222224V-48.150755555555634H410.31680000000006z"  horiz-adv-x="1024" />

    
    <glyph glyph-name="chakan" unicode="&#59322;" d="M483.7647059375-11.294117812499962H150.58823562500004c-2.8235296875 0-5.6470584375 2.8235296875-5.647059375 5.647059375V773.6470584374999c0 2.8235296875 2.8235296875 5.6470584375 5.647059375 5.647059375h694.5882346875001c2.8235296875 0 5.6470584375-2.8235296875 5.647059375-5.647059375V384c0-16.94117625 11.294117812500001-28.235294062500003 28.235294062500003-28.235294062500003s28.235294062500003 11.294117812500001 28.235294062500003 28.235294062500003V773.6470584374999C907.2941178125 807.529411875 879.05882375 835.7647059375 845.1764703125 835.7647059375H150.58823562500004C116.70588218749998 835.7647059375 88.470588125 807.529411875 88.470588125 773.6470584374999v-779.294116875C88.470588125-39.52941187500005 116.70588218749998-67.76470593749991 150.58823562500004-67.76470593749991H483.7647059375c16.94117625 0 28.235294062500003 11.294117812500001 28.235294062500003 28.235294062500003s-11.294117812500001 28.235294062500003-28.235294062500003 28.235294062500003zM737.8823525 609.8823525c0 16.94117625-11.294117812500001 28.235294062500003-28.235294062500003 28.235295H257.8823525c-16.94117625 0-28.235294062500003-11.294117812500001-28.235294062500003-28.235295s11.294117812500001-28.235294062500003 28.235294062500003-28.235294062500003h451.7647059375c16.94117625 0 28.235294062500003 11.294117812500001 28.235294062500003 28.235294062500003zM257.8823525 468.7058821875c-16.94117625 0-28.235294062500003-11.294117812500001-28.235294062500003-28.235294062500003s11.294117812500001-28.235294062500003 28.235294062500003-28.235294062500003h395.2941178125c16.94117625 0 28.235294062500003 11.294117812500001 28.235294062500003 28.235294062500003s-11.294117812500001 28.235294062500003-28.235294062500003 28.235294062500003H257.8823525zM927.0588237500001-19.764705937500025l-96 96c11.294117812500001 25.411764375 19.7647059375 53.6470584375 19.7647059375 81.8823534375 0 93.1764703125-76.23529406249999 169.411764375-169.4117653125 169.411764375s-169.411764375-76.23529406249999-169.411764375-169.411764375 76.23529406249999-169.411764375 169.411764375-169.4117653125c42.3529415625 0 84.7058821875 16.94117625 112.9411771875 45.1764703125l93.1764703125-93.1764703125c5.6470584375-5.6470584375 14.1176475-8.470588125 19.7647059375-8.470588125s14.1176475 2.8235296875 19.7647059375 8.470588125c11.294117812500001 11.294117812500001 11.294117812500001 28.235294062500003 0 39.529411875zM681.411764375 45.17647031249999c-62.117647500000004 0-112.94117625000001 50.8235296875-112.94117625000001 112.9411771875s50.8235296875 112.94117625000001 112.94117625000001 112.94117625000001 112.94117625000001-50.8235296875 112.9411771875-112.94117625000001-50.8235296875-112.94117625000001-112.9411771875-112.9411771875z"  horiz-adv-x="1024" />

    
    <glyph glyph-name="shouru" unicode="&#58979;" d="M840.8127214933334 526.3992103822222c-23.301688888888886 25.890765937777775-49.19245482666667 46.60337777777777-75.08322076444443 64.72691256888889-5.17815296 2.5890770488888886-7.767230008888888 5.17815296-12.945381831111112 7.767230008888888 36.247071857777776 18.123535928888888 62.13783665777777 51.78153073777778 62.13783665777777 90.61767964444445 0 62.13783665777777-59.548760746666666 108.74121443555556-132.04290332444444 108.74121443555556-15.534458879999999 0-31.068918897777777-2.5890770488888886-44.01430186666666-7.767230008888888-7.767230008888888-2.5890770488888886-10.35630592-5.17815296-15.534458879999999-7.7672288711111115-2.5890770488888886 0-7.767230008888888 0-10.35630592 2.5890759111111112-5.17815296 7.767230008888888-12.945382968888888 18.123535928888888-25.890765937777775 28.47984184888889-20.71261184 18.123535928888888-44.014300728888884 28.47984184888889-69.90506666666667 31.068918897777777-25.890765937777775-2.5890770488888886-49.19245482666667-12.945382968888888-69.90506666666667-31.068918897777777-10.35630592-10.35630592-20.71261184-18.123535928888888-25.8907648-28.47984184888889 0 2.5890770488888886-5.17815296 0-7.767230008888888 2.5890770488888886-2.5890770488888886 2.5890770488888886-7.767230008888888 5.17815296-15.534458879999999 7.7672288711111115-12.945382968888888 5.17815296-28.47984184888889 7.767230008888888-44.01430186666666 7.767230008888888-69.90506666666667 0-132.04290332444444-46.60337777777777-132.04290332444444-108.74121443555556 0-38.836147768888885 25.890765937777775-72.49414371555555 62.13783665777777-90.61767964444445-2.5890770488888886-2.5890770488888886-7.767230008888888-5.17815296-12.945382968888888-7.7672288711111115-25.890765937777775-18.123535928888888-51.78153073777778-41.42522481777778-75.08321962666668-64.72691370666666-69.90506666666667-72.49414371555555-113.91936739555555-155.34459221333333-113.91936739555555-245.96227185777775 0-253.7295007288889 196.76981703111107-375.41609927111114 432.37578296888887-375.41609927111114h10.35630592c235.6059659377778 0 432.37578296888887 121.68659740444444 432.37578296888887 375.41609927111114-2.5890770488888886 88.02860259555555-46.60337777777777 170.8790522311111-116.50844444444445 240.78411889777777z m-194.18074111999996-261.49673187555555c15.534458879999999 0 25.890765937777775-10.35630592 25.8907648-25.8907648s-10.35630592-25.890765937777775-25.8907648-25.890765937777775h-103.56306147555556V112.1469633422223c0-15.534458879999999-10.35630592-25.890765937777775-25.890765937777775-25.890765937777775s-25.890765937777775 10.35630592-25.8907648 25.890765937777775v100.97398442666668h-103.56306261333333c-15.534458879999999 0-25.890765937777775 10.35630592-25.8907648 25.890765937777775s10.35630592 25.890765937777775 25.8907648 25.8907648h103.56306261333333v62.137837795555555h-106.15213852444442c-15.534458879999999 0-25.890765937777775 10.35630592-25.890765937777775 25.8907648s10.35630592 25.890765937777775 25.890765937777775 25.890765937777775h77.67229553777777l-85.43952554666666 85.43952554666666c-10.35630592 10.35630592-10.35630592 25.890765937777775 0 36.247071857777776s25.890765937777775 10.35630592 36.247071857777776 0l103.56306147555556-103.56306147555556 103.56306147555556 103.56306147555556c10.35630592 10.35630592 25.890765937777775 10.35630592 36.247071857777776 0s10.35630592-25.890765937777775 0-36.247071857777776l-85.43952554666666-85.43952554666666h77.67229553777777c15.534458879999999 0 25.890765937777775-10.35630592 25.890765937777775-25.890765937777775s-10.35630592-25.890765937777775-25.890765937777775-25.8907648h-106.15213738666667v-62.137837795555555h103.56306147555556z"  horiz-adv-x="1024" />

    
    <glyph glyph-name="fenlei" unicode="&#58985;" d="M457.386667 743.537778V486.4c0-38.684444-29.582222-68.266667-65.991111-68.266667H147.911111c-36.408889 0-65.991111 29.582222-65.991111 68.266667V743.537778c0 38.684444 29.582222 68.266667 65.991111 68.266666h245.76c34.133333 0 63.715556-31.857778 63.715556-68.266666zM605.297778 418.133333h245.76c36.408889 0 65.991111 29.582222 65.991111 68.266667V743.537778c0 38.684444-29.582222 68.266667-65.991111 68.266666H605.297778c-36.408889 0-65.991111-29.582222-65.991111-68.266666V486.4c2.275556-36.408889 29.582222-68.266667 65.991111-68.266667z m-213.902222-68.266666H147.911111c-36.408889 0-65.991111-31.857778-65.991111-68.266667v-254.862222c0-38.684444 29.582222-68.266667 65.991111-68.266667h245.76c36.408889 0 65.991111 29.582222 65.991111 68.266667V281.6c-2.275556 36.408889-31.857778 68.266667-68.266666 68.266667z m466.488888 0H614.4c-36.408889 0-65.991111-31.857778-65.991111-68.266667v-254.862222c0-38.684444 29.582222-68.266667 65.991111-68.266667h245.76c36.408889 0 65.991111 29.582222 65.991111 68.266667V281.6c-2.275556 36.408889-31.857778 68.266667-68.266667 68.266667z"  horiz-adv-x="1024" />

    
    <glyph glyph-name="jingjiren" unicode="&#58989;" d="M882.915556 142.791111c-56.888889 43.235556-218.453333 118.328889-218.453334 118.328889l-104.675555-195.697778-15.928889 45.511111 29.582222 59.164445-56.888889 59.164444-61.44-59.164444 29.582222-59.164445-18.204444-47.786666L364.088889 258.844444s-163.84-72.817778-218.453333-118.328888C88.746667 97.28 63.715556-36.977778 63.715556-36.977778h905.671111c-2.275556 2.275556-20.48 127.431111-86.471111 179.768889m-364.088889 134.257778c131.982222 0 220.728889 177.493333 220.728889 273.066667s0 263.964444-220.728889 263.964444-220.728889-168.391111-220.728889-263.964444 88.746667-273.066667 220.728889-273.066667"  horiz-adv-x="1024" />

    
    <glyph glyph-name="weixin" unicode="&#59003;" d="M678.115556 534.1866669999999c11.377778 0 22.755556 0 34.133333-2.275556C682.666667 668.444444 534.755556 770.8444440000001 366.364444 770.8444440000001c-188.871111 0-341.333333-127.43111099999999-341.333333-291.271111 0-93.297778 52.337778-170.666667 136.533333-229.831111l-34.133333-102.4 120.60444500000001 59.164445c43.235556-9.102222 77.368889-18.204444 120.604444-18.204445 11.377778 0 20.48 0 31.857778 2.275556-6.826667 22.755556-11.377778 47.786667-11.377778 72.817778 0 147.911111 127.43111099999999 270.791111 288.99555599999997 270.791111z m-182.044445 91.022222c25.031111 0 43.235556-15.928889 43.235556-43.235556 0-25.031111-15.928889-43.235556-43.235556-43.235555-25.031111 0-52.337778 18.204444-52.337778 43.235555 0 27.306666999999997 25.031111 43.235556 52.337778 43.235556z m-241.208889-84.195556c-25.031111 0-52.337778 18.204444-52.337778 43.235556 0 25.031111 25.031111 43.235556 52.337778 43.235555 25.031111 0 43.235556-15.928889 43.235556-43.235555s-15.928889-43.235556-43.235556-43.235556z m0 0M992.1422220000001 265.671111c0 136.533333-136.533333 248.03555600000004-291.271111 248.03555600000004-163.84 0-291.271111-111.502222-291.271111-248.03555600000004s127.43111099999999-248.03555600000004 291.271111-248.035555c34.133333 0 68.266667 9.102222 102.4 18.204444l93.297778-52.337778-25.031111 86.471111c68.266667 50.062222 120.604444 120.604444 120.604444 195.697778z m-386.844444 43.235556c-15.928889 0-34.133333 15.928889-34.133334 34.133333 0 15.928889 18.204444 34.133333 34.133334 34.133333 25.031111 0 43.235556-18.204444 43.235555-34.133333s-15.928889-34.133333-43.235555-34.133333z m188.871111 0c-15.928889 0-34.133333 15.928889-34.133333 34.133333 0 15.928889 18.204444 34.133333 34.133333 34.133333 25.031111 0 43.235556-18.204444 43.235555-34.133333s-18.204444-34.133333-43.235555-34.133333z m0 0"  horiz-adv-x="1024" />

    
    <glyph glyph-name="xinwen" unicode="&#59007;" d="M168.391111 620.657778h111.502222c25.031111 0 43.235556 18.204444 43.235556 43.235555V782.222222c0 15.928889-9.102222 20.48-20.48 9.102222L159.288889 641.137778c-11.377778-11.377778-6.826667-20.48 9.102222-20.48zM785.066667 809.528889H411.875556c-22.755556 0-43.235556-18.204444-43.235556-43.235556v-145.635555c0-25.031111-18.204444-43.235556-43.235556-43.235556H179.768889c-25.031111 0-43.235556-18.204444-43.235556-43.235555v-493.795556c0-47.786667 38.684444-86.471111 86.471111-86.471111h562.062223c47.786667 0 86.471111 38.684444 86.471111 86.471111v682.666667c0 47.786667-38.684444 86.471111-86.471111 86.471111z m-59.164445-655.36H284.444444c-13.653333 0-22.755556 9.102222-22.755555 22.755555s9.102222 22.755556 22.755555 22.755556h441.457778c13.653333 0 22.755556-9.102222 22.755556-22.755556 0-11.377778-11.377778-22.755556-22.755556-22.755555z m0 161.564444H320.853333c-13.653333 0-22.755556 9.102222-22.755555 22.755556s9.102222 22.755556 22.755555 22.755555h402.773334c13.653333 0 22.755556-9.102222 22.755555-22.755555s-9.102222-22.755556-20.48-22.755556z m0 163.84h-159.288889c-13.653333 0-22.755556 9.102222-22.755555 22.755556s9.102222 22.755556 22.755555 22.755555h159.288889c13.653333 0 22.755556-9.102222 22.755556-22.755555s-11.377778-22.755556-22.755556-22.755556z"  horiz-adv-x="1024" />

    


  </font>
</defs>
</svg>
